#TITLE:Crazy Dogs;
#SUBTITLE:Initiate;
#ARTIST:Big Bang;
#TITLETRANSLIT:;
#SUBTITLETRANSLIT:;
#ARTISTTRANSLIT:;
#CREDIT:;
#BANNER:Crazy Dog-bn.jpg;
#BACKGROUND:;
#LYRICSPATH:;
#CDTITLE:cdtitle.png;
#MUSIC:Crazy Dog.ogg;
#OFFSET:0.000;
#SAMPLESTART:100.000;
#SAMPLELENGTH:12.000;
#SELECTABLE:YES;
#BPMS:0.000=123.000;
#STOPS:;
#BGCHANGES:;
// cache tags:
#FIRSTBEAT:0.000;
#LASTBEAT:292.000;
#SONGFILENAME:Songs/Initiate/crazydogs/Crazy Dog.sm.sm;
#HASMUSIC:1;
#HASBANNER:1;
#MUSICLENGTH:143.243;
// end cache tags

//---------------dance-single - ----------------
#NOTES:
     dance-single:
     :
     Hard:
     11:
     1.000,1.000,1.000,0.202,1.000,824.000,479.000,29.000,0.000,27.000:
1001
1001
1001
0000
1001
0000
0000
0000
0000
0000
1001
0000
1001
0000
1001
0000
,
1001
1001
1001
0000
1001
0000
0000
0000
0000
0000
1001
0000
1001
0000
1001
0000
,
1001
1001
1001
0000
1001
0000
0000
0000
0000
0000
1001
0000
1001
0000
1001
0000
,
1001
0000
1001
1001
1001
1001
1001
1001
,
1001
1001
1001
0000
1001
0000
1000
0000
1001
0000
0001
0000
1001
0000
1000
0000
,
1001
0001
1001
1000
1001
0001
1001
1000
,
1001
0001
1001
1000
1001
0001
1001
1000
,
1001
0001
1001
1000
1001
0001
1001
1000
,
1001
0000
1001
0000
1001
0110
1001
0000
,
1001
1001
1001
0000
1001
0000
0110
0000
1001
0000
1001
0000
1001
0000
0000
0000
,
1001
1001
1001
0000
1001
0000
0110
0000
1001
0000
1001
0000
1001
0000
0000
0000
,
1001
0000
1001
1001
1001
0000
1001
0000
1001
0000
1001
0000
1001
0000
1001
0000
,
1001
0000
1001
0000
1001
0110
1001
0000
,
1001
1001
1001
1001
1001
1001
1001
1001
1001
0000
1001
0000
1001
0000
0000
0000
,
1001
1001
1001
1001
1001
1001
1001
1001
1001
1001
1001
1001
1001
1001
1001
1001
,
1001
0110
1001
1001
1001
1001
1001
1001
1001
1001
1001
1001
1001
1001
1001
1001
,
1001
0000
0000
0000
0110
0000
0000
0000
0110
0000
0000
0000
0110
0000
0000
0000
0110
0000
0000
0000
0110
0000
0000
0000
0000
0000
0000
0000
1001
0110
0000
0000
,
0000
0000
0000
0000
0110
0000
0110
0000
0110
0000
0000
0000
0110
0000
0000
0000
0110
0000
0000
0000
0110
0000
0000
0000
0000
0000
0000
0000
1001
0110
0000
0000
,
0000
0000
0000
0000
0110
0000
0110
0000
0110
0000
0000
0000
0110
0000
0000
0000
0110
0000
0000
0000
0110
0000
0110
0000
0110
0000
0000
0000
1001
0110
0000
0000
,
0000
0000
0110
0110
0110
0000
0110
0000
0110
0000
0110
0000
0110
0000
0110
0000
,
0110
0110
0110
0110
0110
0110
0110
0110
0110
0110
0110
0110
0110
0000
1001
0000
,
0000
0000
0110
0110
0110
0000
0110
0000
0110
0000
0110
0110
0110
0000
1001
0000
,
1010
1010
1010
1010
1010
1010
1010
1010
1010
1010
1010
1010
1010
1010
1010
1010
,
0101
0101
0101
0101
0101
0101
0101
0101
0101
0101
0101
0101
0101
0101
0101
0101
,
0101
0010
1010
0010
0110
0010
1010
0010
0110
0010
1010
0010
0110
0010
2010
0010
,
0010
0010
3110
0010
1010
0010
0210
0010
0010
0010
1310
0010
0010
0010
0010
0010
,
0010
0010
0110
0010
1010
0010
0110
0010
1010
0010
0110
0010
1010
0010
1010
0010
,
0110
0010
0110
0010
0110
0010
2010
0010
0010
0010
3010
0010
0010
0010
0010
0010
,
0100
0100
0101
0100
0101
0100
0101
0100
0110
0100
0101
0100
0101
0100
0120
0100
,
0100
0100
0131
0100
0110
0100
0102
0100
0100
0100
0113
0100
0110
0100
0102
0100
,
0100
0100
0110
0100
0110
0100
0113
0100
0100
0100
0110
0100
0100
0100
0101
0100
,
0101
0100
0101
0100
0101
0100
0101
0100
0101
0101
0102
0100
0100
0100
0103
0100
,
0110
0000
0110
0000
1001
1001
1001
0000
0110
0000
1001
0000
0110
0000
1001
1001
,
1001
0000
0110
0000
1001
1001
1001
0000
0110
0000
0110
0000
1001
1001
1001
0000
,
0110
0000
1001
1001
1001
0000
1001
0000
1001
0000
1001
0000
1201
0000
0000
0000
,
1011
0010
0010
0010
1010
0010
0010
0010
1010
0010
0010
0010
1010
0010
0310
0010
,
1010
0000
1001
0000
1001
1001
1001
0000
1001
0000
0110
0000
1001
0000
0000
0000
,
1001
1001
1001
0110
0000
0000
0110
0000
1001
0000
1001
0000
1001
0000
0110
0000
,
1001
1001
1001
0110
0000
0000
1001
0000
1001
0000
1001
0000
1001
0000
0000
0000
,
1001
1001
1001
1001
,
1001
0000
0010
0000
0100
0000
0010
0000
0010
0010
0010
0000
0100
0000
0000
0000
,
0101
0110
0101
0110
0101
0110
0101
0110
0101
0000
0101
0000
0110
0000
0000
0000
,
1010
0000
0110
0000
1010
0011
1010
0011
1010
0000
0110
0000
1010
0000
0000
0000
,
1001
0010
1100
0010
1001
0010
1100
0010
1001
0010
1100
0010
1001
0000
0110
0000
,
1001
0000
1001
0000
0110
0000
1001
0000
1001
0000
0000
0000
0110
0000
1001
1001
,
1001
0000
1001
0000
1001
0000
1001
0000
0110
0000
0000
0000
1001
0000
0110
0110
,
0110
0110
0110
0110
1001
0001
0001
0001
,
0002
0000
0010
0010
0010
0010
0010
0010
,
0013
0100
0010
0100
0010
0100
0010
0100
0010
0100
0010
0100
0010
0100
0010
0100
0002
0000
0000
0000
0000
0000
0000
0000
0013
0100
0010
0100
0010
0100
0010
0100
,
0002
0000
0000
0000
0000
0000
0000
0000
0013
0100
0010
0100
0010
0100
0010
0100
0002
0000
0000
0000
0000
0000
0000
0000
0003
0000
0000
0000
0010
0000
0000
0000
,
0200
0000
1300
1000
0020
0000
0130
0010
,
1000
0010
0100
0010
1000
0001
0100
0010
1000
0001
1000
0001
0110
0000
0000
0000
0110
0000
0000
0000
0000
0000
0000
0000
1001
0000
0000
0000
0000
0000
0000
0000
,
0001
1000
0001
1000
0001
1000
0001
1000
0001
1000
0001
1000
0001
1000
0001
1000
0001
0000
0000
0000
1001
0000
0000
0000
1001
0000
0000
0000
0000
0000
0000
0000
,
1000
0001
1000
0001
1000
0001
1000
0001
1000
0001
1000
0001
1000
0001
1000
0001
1000
0000
0000
0000
1001
0000
0000
0000
1001
0000
0000
0000
0000
0000
0000
0000
,
0001
0001
0101
0001
1001
0001
0101
0001
1001
0001
0101
0001
2001
0001
0001
0001
,
3102
0100
0100
0100
0100
0100
0100
0100
0110
0100
0110
0100
0110
0100
0100
0100
,
0103
0010
1001
0010
0110
1000
0101
0010
0101
1000
0101
1000
0101
0010
0002
1000
,
0100
0010
0103
0010
1001
0001
2100
0010
0101
0010
3001
0010
0100
0001
1000
0010
,
0100
0010
0110
1000
0101
0010
1100
0010
0101
1000
0110
0010
1001
0010
0110
1000
,
0101
0010
1001
0100
1000
0010
0201
0010
0001
0010
1300
1000
0100
0010
0001
0010
,
0100
1000
1010
0010
1001
0010
1001
1000
0100
0010
1001
0010
0101
1000
0201
0010
,
0001
0010
1300
1000
0101
0010
0101
0010
0101
1000
0101
0010
0101
0010
0201
1000
,
0001
0010
0301
0010
0101
0010
0100
0010
0101
0010
0100
0010
0101
0010
0001
0010
,
1001
0000
0101
0000
1001
0000
0101
0000
1001
0000
0101
0000
1001
0000
0010
0000
1001
0010
0100
0001
1000
0010
0100
0001
1000
0010
0100
0001
1000
0010
0100
0001
,
1100
0010
0100
0010
0100
0010
0100
0010
1101
0000
0000
0000
0000
0000
0000
0000
1001
0000
0000
0000
0000
0000
0000
0000
1001
0000
0000
0000
0000
0000
0000
0000
,
1001
1001
1001
0110
0000
0000
0000
0000
1001
0000
0000
0000
1001
0000
0000
0000
,
1001
1001
1001
0110
0000
0000
0110
0000
0110
0000
0110
0000
0002
0000
0000
0000
,
2020
0230
3320
0233
,
1301
1001
1001
0110
0000
0000
0000
0000
1001
0000
0000
0000
1001
0000
0000
0000
,
1001
1001
1001
0110
0000
0000
0000
0000
0110
0000
0000
0000
0110
0000
0000
0000
,
1001
1001
1001
0110
0000
0000
1001
0000
1001
0000
1001
0000
1111
0000
0000
0000
,
1001
0000
1111
0000
1001
1001
1111
1001
,
1001
1001
1001
1221
0000
0000
0000
0000
,
0330
0000
0000
0000
;

//---------------dance-single - Crazy----------------
#NOTES:
     dance-single:
     Crazy:
     Edit:
     15:
     1.000,1.000,1.000,0.202,1.000,999.000,501.000,29.000,0.000,53.000:
0100
0010
0100
0000
1001
0000
0000
0000
0000
0000
0001
0000
0001
0000
0001
0000
,
1000
0001
1000
0000
1001
0000
0000
0000
0000
0000
0101
0000
1010
0000
1100
0000
,
0101
1100
0101
0000
1001
0000
0000
0000
0000
0000
1001
0000
0011
0000
1100
0000
,
0110
0000
0011
1100
0011
1100
1001
0110
,
1010
0110
1010
0000
1001
0000
1000
0000
1001
0000
0001
0000
1001
0000
1000
0000
,
1001
0110
0001
0110
1001
0000
1000
0000
1001
0000
0001
0000
1001
0000
1000
0000
,
1001
0110
0001
0110
1001
0000
1000
0000
1001
0000
0001
0000
1001
0000
1000
0000
,
1001
0100
0001
0000
1001
0110
1000
0110
1001
0000
0001
0000
1001
0000
1000
0000
,
1001
0000
0010
0100
1001
0000
0100
0000
1001
0000
0110
0000
1001
0010
0100
0000
,
0010
1000
0010
0000
1001
0000
0010
0000
1001
0100
0010
0000
1000
0000
0010
0000
,
0010
1000
0001
0000
1001
0000
0110
0000
0101
0010
1000
0000
0101
0000
0010
0000
,
0101
1000
0010
0100
1010
0000
1100
0000
0011
0000
1100
0000
0110
0000
0011
0000
,
1000
0100
0010
0100
1001
0000
0100
0000
1001
0000
0110
0000
1001
0000
0010
0000
,
1001
1100
1001
0000
0110
0000
1001
0000
0110
0000
1100
0000
0011
0000
0100
0000
,
1000
0100
0001
0010
1000
0100
0001
0010
1000
0100
0001
0010
1000
0100
0001
0010
1000
0100
0001
0100
1000
0010
0001
0100
1000
0010
0001
0100
1000
0010
0001
0100
,
1011
0100
0011
1000
0011
0100
0011
1000
0011
0100
0011
1000
0011
0100
0011
1000
0011
0100
0011
1000
0011
0100
0011
1000
0011
0100
0011
1000
0011
0100
0011
1000
,
0011
0000
0000
0000
0110
0000
0000
0000
0110
0000
1001
0000
0110
0000
1001
0000
0110
0000
0000
0000
0110
0000
0000
0000
1001
0000
0100
0000
1001
0110
0000
0000
,
1001
0000
0000
0000
0110
0000
0110
0000
0110
0000
0000
0000
0110
0000
0000
0000
0110
0000
1001
0000
0110
0000
1001
0000
0110
0000
0010
0000
1001
0110
0000
0000
,
1001
0000
0000
0000
0110
0000
0110
0000
0110
0000
1001
0000
0110
0000
1001
0000
0110
0000
1001
0000
0110
0000
0110
0000
0110
0000
0000
0000
1001
0110
0000
0000
,
1001
0000
0110
0110
0110
0000
0110
1001
0110
1001
0110
1001
0110
0000
0110
0000
,
1001
1010
1100
1010
1001
1010
1100
0110
0011
0110
1100
0110
0011
0000
1001
0000
,
1001
0000
0110
0110
0110
0000
0110
0000
0110
0000
0110
0110
0110
0000
1001
0100
,
0001
0010
1000
0100
0001
0010
1000
0100
0001
0010
1000
0100
0001
0010
1000
0100
0001
0010
1000
0100
0001
0010
1000
0100
0001
0010
1000
0100
0001
0010
1000
0100
,
1001
0000
0101
0000
1001
0000
0101
0000
1001
0000
0101
0000
1001
0000
0101
0000
1001
0000
0101
0000
1001
0000
0101
0000
1001
0100
1001
0010
1001
0100
1001
0000
,
1011
0010
1010
0010
0110
0010
1010
0010
0110
0010
1010
0010
0110
0010
2010
0010
,
0010
0010
3110
0010
1010
0010
0210
0010
0010
0010
1310
0010
0010
0010
0010
0010
,
0010
0010
0110
0010
1010
0010
0110
0010
1010
0010
0110
0010
1010
0010
1010
0010
,
0110
0010
0110
0010
0110
0010
2010
0010
0010
0010
3010
0010
0010
0010
0010
0010
,
0100
0100
0101
0100
0101
0100
0101
0100
0110
0100
0101
0100
0101
0100
0120
0100
,
0100
0100
0131
0100
0110
0100
0102
0100
0100
0100
0113
0100
0110
0100
0102
0100
,
0100
0100
0110
0100
0110
0100
0113
0100
0100
0100
0110
0100
0100
0100
0101
0100
,
0101
1000
0100
1000
0101
1000
0100
1000
0101
1000
0100
1000
0101
1000
0100
1000
0101
1000
0101
1000
0101
1000
0102
1000
0100
1000
0100
1000
0100
1000
0100
1000
,
0113
0000
0110
0000
1001
1001
1001
0000
0110
0000
1001
0000
0110
0000
1001
1001
,
1001
0000
0110
0000
1001
1001
1001
0000
0110
1001
0110
0000
1001
1001
1001
0000
,
0110
0000
1001
1001
1001
0000
1001
0000
1001
0000
1001
0000
1201
0000
0010
0000
,
1011
0010
0010
0010
1010
0010
0010
0010
1010
0010
0010
0010
1010
0010
0310
0010
,
1010
0000
1001
0000
1001
1001
1001
0000
1001
0000
0110
0000
1001
0000
1001
0000
,
1001
1001
1001
0110
1001
0000
0110
0000
1001
1001
1001
0000
1001
0000
0110
0000
,
1001
1001
1001
0110
1001
0000
1001
0000
1001
0000
1001
0000
1001
0000
0001
0000
,
1001
0001
1001
0001
1001
0001
1001
0001
,
1001
0000
0010
0000
0100
0000
0010
0000
1010
0110
1010
0000
0100
0000
0010
0000
,
0101
1100
0101
1100
0101
1100
0101
1100
0101
0000
0101
0000
0110
0000
0100
0000
,
1010
0000
0110
0000
1010
0011
1010
0011
1010
0000
0110
0000
1010
0000
0100
0000
,
1001
0101
1100
0101
1001
0101
1100
0101
1001
0101
1100
0101
1001
0000
0110
0000
,
1001
0000
1001
0000
0110
0000
1001
0000
1001
0000
0010
0000
0110
0000
1001
1001
,
1001
0000
1001
0000
1001
0000
1001
0000
0110
0000
0100
0000
1001
0000
0110
0110
,
0110
0000
0110
0000
0110
0000
0110
0000
1001
0100
0001
0010
0001
0100
0001
0010
,
1002
0010
0100
1000
0010
0100
0010
1000
0010
0100
0010
1000
0010
0100
0010
1000
,
0013
0100
0010
0100
0010
0100
0010
0100
1010
0100
0010
0100
0010
0100
0010
0100
1002
0000
0000
0000
0000
0000
0000
0000
1013
0100
0010
0100
0010
0100
0010
0100
,
1002
0000
0000
0000
0000
0000
0000
0000
1013
0100
0010
0100
0010
0100
0010
0100
1002
0000
0000
0000
0000
0000
0000
0000
1003
0000
0000
0000
0010
0000
0000
0000
,
0201
0000
1300
1000
1020
0000
0130
0010
,
1000
0010
0100
0010
1000
0001
0100
0010
1100
0001
1000
0001
0110
0000
0000
0000
0110
0000
0000
0000
0000
0000
0000
0000
1001
0000
0000
0000
0000
0000
0000
0000
,
0001
1000
0001
1000
0001
1000
0001
1000
0011
1000
0001
1000
0001
1000
0001
1000
0001
0000
0000
0000
1001
0000
0000
0000
1001
0000
0000
0000
0000
0000
0000
0000
,
1000
0001
1000
0001
1000
0001
1000
0001
1100
0001
1000
0001
1000
0001
1000
0001
1000
0000
0000
0000
1001
0000
0000
0000
1001
0000
0000
0000
0000
0000
0000
0000
,
0001
0001
0101
0001
1001
0001
0101
0001
1001
0001
0101
0001
2001
0001
0001
0001
,
3102
0000
0100
0000
0100
0000
0100
0000
0100
0000
0100
0000
0100
0000
0100
0000
1110
0000
0100
0000
1110
0000
0100
0000
1110
0000
0010
1000
0100
0010
1000
0010
,
0103
0010
1001
0010
0111
1000
0101
0010
0101
1000
0101
1000
1101
0010
0102
1000
,
0100
0010
0103
0010
1101
0001
2100
0010
0101
0010
3001
0010
1101
0001
1000
0010
,
0100
0010
0110
1000
0111
0010
1100
0010
0101
1000
0110
0010
1101
0010
0110
1000
,
0101
0010
1001
0100
1011
0010
0201
0010
0001
0010
1300
1000
1101
0010
0001
0010
,
0100
1000
1010
0010
1101
0010
1001
1000
0100
0010
1001
0010
1101
1000
0201
0010
,
0001
0010
1300
1000
0111
0010
0101
0010
0101
1000
0101
0010
1101
0010
0201
1000
,
0001
0010
0301
0010
1101
0010
0100
0010
0101
0010
0100
0010
0111
0010
0001
0010
,
1001
0000
0101
0000
1001
0000
0101
0000
1001
0000
0101
0000
1001
0000
0010
0000
1001
0010
0100
0001
1000
0010
0100
0001
1000
0010
0100
0001
1000
0010
0100
0001
,
1100
0010
0100
0010
0100
0010
0100
0010
1101
0000
0000
0000
0010
0000
0100
0000
1001
0000
0010
0000
1001
0000
0000
0000
1001
0000
0000
0000
1001
0000
0000
0000
,
1001
1001
1001
0110
1001
0000
1001
0000
1001
1001
0110
0000
1001
0000
1001
0000
,
1001
1001
1001
0110
1001
0000
0110
0110
0110
0110
1001
0000
0002
0000
0100
0000
,
2020
0100
0230
0010
3320
1000
0233
0010
,
1301
1001
1001
0110
1001
0000
0110
1001
1001
0000
1001
0000
1001
0000
1001
0000
,
1001
1001
1001
0110
1001
0000
0110
1001
0110
1001
1001
1001
0110
0000
1001
0000
,
1001
1001
1001
0110
1001
0000
1001
0100
1001
0010
1001
0000
1111
0000
1001
0000
,
1011
1001
1111
1001
1101
1001
1111
1001
,
1011
1001
1101
1221
0000
0000
0000
0000
,
0330
0000
0000
0000
;
